<?xml version="1.0" standalone="no"?>
<!DOCTYPE svg PUBLIC "-//W3C//DTD SVG 1.1//EN" "http://www.w3.org/Graphics/SVG/1.1/DTD/svg11.dtd" >
<svg>
<metadata>
Created by FontForge 20110222 at Mon Mar  7 13:22:36 2011
 By www-data
Copyright (c) Joseph Spicer, 2004. All rights reserved.
</metadata>
<defs>
<font id="DuckHunt" horiz-adv-x="629" >
  <font-face 
    font-family="Duck Hunt"
    font-weight="400"
    font-stretch="normal"
    units-per-em="1000"
    panose-1="2 11 0 0 0 0 0 0 0 0"
    ascent="800"
    descent="-200"
    x-height="559"
    cap-height="699"
    bbox="18 -200 1062 800.09"
    underline-thickness="50"
    underline-position="-50"
    unicode-range="U+0020-2122"
  />
    <missing-glyph />
    <glyph glyph-name="space" unicode=" " 
 />
    <glyph glyph-name="space" unicode="&#xa0;" 
 />
    <glyph glyph-name="H" unicode="H" 
d="M310 0h-280v699h280v-206h152v206h137v-699h-137v277h-152v-277z" />
    <glyph glyph-name="N" unicode="N" 
d="M310 0h-280v699h280v-131q23 0 47 -8.5t44.5 -23t36.5 -35t24 -44.5v242h137v-699h-137v91q0 70 -18 109t-42.5 57.5t-50 22.5t-41.5 4v-284z" />
    <glyph glyph-name="T" unicode="T" 
d="M457 0h-280v550h-147v149h569v-149h-142v-550z" />
    <glyph glyph-name="I" unicode="I" 
d="M599 149v-149h-569v149h147v401h-147v149h569v-149h-142v-401h142z" />
    <glyph glyph-name="L" unicode="L" 
d="M310 286h289v-286h-569v699h280v-413z" />
    <glyph glyph-name="O" unicode="O" 
d="M30 570q0 36 12 60.5t31.5 40t43.5 22t48 6.5h299q24 0 48 -6.5t43.5 -22t31.5 -40t12 -60.5v-437q0 -60 -38 -96.5t-110 -36.5h-273q-72 0 -110 36.5t-38 96.5v437zM310 424q0 -73 22 -105.5t54 -32.5t54 32.5t22 105.5t-22 106t-54 33t-54 -33t-22 -106z" />
    <glyph glyph-name="A" unicode="A" 
d="M462 0v252h-152v-252h-280v570q0 36 12 60.5t31.5 40t43.5 22t48 6.5h299q24 0 48 -6.5t43.5 -22t31.5 -40t12 -60.5v-570h-137zM462 424q0 73 -22 106t-54 33t-54 -33t-22 -106v-16h152v16z" />
    <glyph glyph-name="P" unicode="P" 
d="M310 424q0 -73 22 -106t54 -33t54 33t22 106t-22 106t-54 33t-54 -33t-22 -106zM310 149v-149h-280v699h434q24 0 48 -6.5t43.5 -22t31.5 -40t12 -60.5v-292q0 -36 -12 -60.5t-31.5 -40t-43.5 -22t-48 -6.5h-154z" />
    <glyph glyph-name="J" unicode="J" 
d="M319 699h280v-566q0 -60 -38 -96.5t-110 -36.5h-421v286h213q32 0 54 32.5t22 105.5v275z" />
    <glyph glyph-name="one" unicode="1" 
d="M599 149v-149h-569v149h147v401l-147 -50v149l147 50h280v-550h142z" />
    <glyph glyph-name="zero" unicode="0" 
d="M30 570q0 36 12 60.5t31.5 40t43.5 22t48 6.5h299q24 0 48 -6.5t43.5 -22t31.5 -40t12 -60.5v-437q0 -60 -38 -96.5t-110 -36.5h-273q-72 0 -110 36.5t-38 96.5v437zM310 424q0 -73 22 -105.5t54 -32.5t54 32.5t22 105.5t-22 106t-54 33t-54 -33t-22 -106z" />
    <glyph glyph-name="Z" unicode="Z" 
d="M599 149v-149h-569v149l289 401h-289v149h569v-149l-289 -401h289z" />
    <glyph glyph-name="F" unicode="F" 
d="M599 418v-136h-289v-282h-280v699h569v-136h-289v-145h289z" />
    <glyph glyph-name="a" unicode="a" horiz-adv-x="503" 
d="M370 0v202h-122v-202h-224v456q0 29 9.5 48.5t25 31.5t35 17.5t38.5 5.5h239q19 0 38.5 -5.5t35 -17.5t25 -31.5t9.5 -48.5v-456h-109zM370 339q0 59 -18 85t-43 26q-26 0 -43.5 -26t-17.5 -85v-13h122v13z" />
    <glyph glyph-name="c" unicode="c" horiz-adv-x="503" 
d="M248 339q0 -58 17.5 -84t43.5 -26q22 0 38.5 20t20.5 65h111v-208q0 -48 -30 -77t-88 -29h-219q-57 0 -87.5 29t-30.5 77v350q0 29 9.5 48.5t25 31.5t35 17.5t38.5 5.5h239q19 0 38.5 -5.5t35 -17.5t25 -31.5t9.5 -48.5v-92h-111q-4 45 -20.5 65.5t-38.5 20.5
q-26 0 -43.5 -26t-17.5 -85z" />
    <glyph glyph-name="d" unicode="d" horiz-adv-x="503" 
d="M24 559h347q19 0 38.5 -5.5t35 -17.5t25 -31.5t9.5 -48.5v-350q0 -48 -30 -77t-88 -29h-337v559zM248 339q0 -58 17.5 -84t43.5 -26q25 0 43 26t18 84q0 59 -18 85t-43 26q-26 0 -43.5 -26t-17.5 -85z" />
    <glyph glyph-name="f" unicode="f" horiz-adv-x="503" 
d="M479 334v-108h-231v-226h-224v559h455v-109h-231v-116h231z" />
    <glyph glyph-name="h" unicode="h" horiz-adv-x="503" 
d="M248 0h-224v559h224v-165h122v165h109v-559h-109v222h-122v-222z" />
    <glyph glyph-name="i" unicode="i" horiz-adv-x="503" 
d="M479 119v-119h-455v119h118v321h-118v119h455v-119h-113v-321h113z" />
    <glyph glyph-name="j" unicode="j" horiz-adv-x="503" 
d="M255 559h224v-453q0 -48 -30 -77t-88 -29h-337v229h170q26 0 43.5 26t17.5 84v220z" />
    <glyph glyph-name="k" unicode="k" horiz-adv-x="503" 
d="M248 0h-224v559h224v-223q16 0 37 4.5t40 20.5t32 45.5t13 79.5v73h109v-85q0 -60 -19 -89.5t-58 -48.5q33 -12 55 -41t22 -80v-215h-109v73q0 56 -12 87t-30 46t-39.5 18t-40.5 3v-227z" />
    <glyph glyph-name="l" unicode="l" horiz-adv-x="503" 
d="M248 229h231v-229h-455v559h224v-330z" />
    <glyph glyph-name="n" unicode="n" horiz-adv-x="503" 
d="M248 0h-224v559h224v-105q19 0 38 -6.5t35.5 -18.5t29.5 -28t19 -35v193h109v-559h-109v73q0 56 -14.5 87t-34 46t-40 18t-33.5 3v-227z" />
    <glyph glyph-name="o" unicode="o" horiz-adv-x="503" 
d="M24 456q0 29 9.5 48.5t25 31.5t35 17.5t38.5 5.5h239q19 0 38.5 -5.5t35 -17.5t25 -31.5t9.5 -48.5v-350q0 -48 -30 -77t-88 -29h-219q-57 0 -87.5 29t-30.5 77v350zM248 339q0 -58 17.5 -84t43.5 -26q25 0 43 26t18 84q0 59 -18 85t-43 26q-26 0 -43.5 -26t-17.5 -85z
" />
    <glyph glyph-name="p" unicode="p" horiz-adv-x="503" 
d="M248 339q0 -58 17.5 -84.5t43.5 -26.5q25 0 43 26.5t18 84.5q0 59 -18 85t-43 26q-26 0 -43.5 -26t-17.5 -85zM248 119v-119h-224v559h347q19 0 38.5 -5.5t35 -17.5t25 -31.5t9.5 -48.5v-234q0 -28 -9.5 -48t-25 -32t-35 -17.5t-38.5 -5.5h-123z" />
    <glyph glyph-name="t" unicode="t" horiz-adv-x="503" 
d="M366 0h-224v440h-118v119h455v-119h-113v-440z" />
    <glyph glyph-name="u" unicode="u" horiz-adv-x="503" 
d="M248 339q0 -58 17.5 -84t43.5 -26q25 0 43 26t18 84v220h109v-453q0 -48 -30 -77t-88 -29h-219q-57 0 -87.5 29t-30.5 77v453h224v-220z" />
    <glyph glyph-name="z" unicode="z" horiz-adv-x="503" 
d="M479 119v-119h-455v119l231 321h-231v119h455v-119l-231 -321h231z" />
    <glyph glyph-name="E" unicode="E" 
d="M599 136v-136h-569v699h569v-136h-289v-145h289v-136h-289v-146h289z" />
    <glyph glyph-name="e" unicode="e" horiz-adv-x="503" 
d="M479 109v-109h-455v559h455v-109h-231v-116h231v-108h-231v-117h231z" />
    <glyph glyph-name="X" unicode="X" 
d="M410 0l-95 175l-95 -175h-190l190 350l-189 349h190l94 -174l94 174h190l-189 -349l190 -350h-190z" />
    <glyph glyph-name="x" unicode="x" horiz-adv-x="503" 
d="M328 0l-76 140l-76 -140h-152l152 280l-151 279h152l75 -139l75 139h152l-151 -279l152 -280h-152z" />
    <glyph glyph-name="R" unicode="R" 
d="M310 0h-280v699h434q24 0 48 -6.5t43.5 -22t31.5 -40t12 -60.5v-182q0 -55 -26.5 -84t-62.5 -39q17 -4 33 -19.5t28.5 -37t20 -47.5t7.5 -52v-109h-137v61q0 55 -18 88t-42.5 51t-50 23.5t-41.5 5.5v-229zM310 464q0 -51 22 -75t54 -24t54 24t22 75t-22 75t-54 24
t-54 -24t-22 -75z" />
    <glyph glyph-name="r" unicode="r" horiz-adv-x="503" 
d="M248 0h-224v559h347q19 0 38.5 -5.5t35 -17.5t25 -31.5t9.5 -48.5v-146q0 -44 -21 -67t-50 -31q14 -3 27 -15.5t22.5 -30t15.5 -38t6 -41.5v-87h-109v49q0 44 -14.5 70.5t-34 40.5t-40 18.5t-33.5 4.5v-183zM248 371q0 -40 17.5 -59.5t43.5 -19.5q25 0 43 19.5t18 59.5
q0 41 -18 60t-43 19q-26 0 -43.5 -19t-17.5 -60z" />
    <glyph glyph-name="Y" unicode="Y" 
d="M177 0v378l-146 321h190l94 -224l94 224h190l-142 -312v-387h-280z" />
    <glyph glyph-name="y" unicode="y" horiz-adv-x="503" 
d="M142 0v302l-117 257h152l75 -179l75 179h152l-113 -249v-310h-224z" />
    <glyph glyph-name="V" unicode="V" 
d="M386 286l76 413h137l-148 -699h-273l-148 699h280z" />
    <glyph glyph-name="W" unicode="W" horiz-adv-x="1061" 
d="M818 286l76 413h137l-148 -699h-273l-80 375l-79 -375h-273l-148 699h280l76 -413l76 413h280z" />
    <glyph glyph-name="v" unicode="v" horiz-adv-x="503" 
d="M309 229l61 330h109l-118 -559h-219l-118 559h224z" />
    <glyph glyph-name="w" unicode="w" horiz-adv-x="849" 
d="M654 229l61 330h110l-119 -559h-218l-64 300l-63 -300h-219l-118 559h224l61 -330l61 330h224z" />
    <glyph glyph-name="B" unicode="B" 
d="M502 353q25 -10 43 -23t30 -30.5t18 -41.5t6 -57v-68q0 -60 -38 -96.5t-110 -36.5h-421v699h434q24 0 48 -6.5t43.5 -22t31.5 -40t12 -60.5v-65q0 -67 -23.5 -102.5t-73.5 -49.5zM310 491q0 -43 22 -58.5t54 -15.5t54 15.5t22 58.5t-22 57.5t-54 14.5t-54 -14.5
t-22 -57.5zM310 210q0 -43 22 -63.5t54 -20.5t54 20.5t22 63.5t-22 62.5t-54 19.5t-54 -19.5t-22 -62.5z" />
    <glyph glyph-name="b" unicode="b" horiz-adv-x="503" 
d="M402 282q39 -16 58 -42t19 -79v-55q0 -48 -30 -77t-88 -29h-337v559h347q19 0 38.5 -5.5t35 -17.5t25 -31.5t9.5 -48.5v-52q0 -54 -19 -82.5t-58 -39.5zM248 393q0 -35 17.5 -47t43.5 -12q25 0 43 12t18 47q0 34 -18 45.5t-43 11.5q-26 0 -43.5 -11.5t-17.5 -45.5z
M248 168q0 -35 17.5 -51t43.5 -16q25 0 43 16t18 51t-18 50.5t-43 15.5q-26 0 -43.5 -15.5t-17.5 -50.5z" />
    <glyph glyph-name="G" unicode="G" 
d="M310 424q0 -73 22 -105.5t54 -32.5q28 0 48.5 25t25.5 82h139v-393h-210v60q0 -8 -9.5 -18.5t-24 -19.5t-31.5 -15.5t-32 -6.5h-114q-72 0 -110 36.5t-38 96.5v437q0 36 12 60.5t31.5 40t43.5 22t48 6.5h299q24 0 48 -6.5t43.5 -22t31.5 -40t12 -60.5v-115h-139
q-5 57 -25.5 82.5t-48.5 25.5q-32 0 -54 -33t-22 -106z" />
    <glyph glyph-name="g" unicode="g" horiz-adv-x="503" 
d="M248 339q0 -58 17.5 -84t43.5 -26q22 0 38.5 20t20.5 65h111v-314h-168v48q0 -7 -7.5 -15t-19 -15.5t-25 -12.5t-25.5 -5h-92q-57 0 -87.5 29t-30.5 77v350q0 29 9.5 48.5t25 31.5t35 17.5t38.5 5.5h239q19 0 38.5 -5.5t35 -17.5t25 -31.5t9.5 -48.5v-92h-111
q-4 45 -20.5 65.5t-38.5 20.5q-26 0 -43.5 -26t-17.5 -85z" />
    <glyph glyph-name="M" unicode="M" horiz-adv-x="1061" 
d="M243 413l-76 -413h-137l148 699h273l80 -375l79 375h273l148 -699h-280l-76 413l-76 -413h-280z" />
    <glyph glyph-name="m" unicode="m" horiz-adv-x="849" 
d="M194 330l-60 -330h-110l118 559h219l64 -300l63 300h218l119 -559h-224l-61 330l-61 -330h-224z" />
    <glyph glyph-name="Q" unicode="Q" 
d="M30 570q0 36 12 60.5t31.5 40t43.5 22t48 6.5h299q24 0 48 -6.5t43.5 -22t31.5 -40t12 -60.5v-437q0 -60 -38 -96.5t-110 -36.5h-31l110 -200h-190l-111 200h-51q-72 0 -110 36.5t-38 96.5v437zM310 424q0 -73 22 -105.5t54 -32.5t54 32.5t22 105.5t-22 106t-54 33
t-54 -33t-22 -106z" />
    <glyph glyph-name="q" unicode="q" horiz-adv-x="503" 
d="M24 456q0 29 9.5 48.5t25 31.5t35 17.5t38.5 5.5h239q19 0 38.5 -5.5t35 -17.5t25 -31.5t9.5 -48.5v-350q0 -48 -30 -77t-88 -29h-25l88 -160h-152l-89 160h-41q-57 0 -87.5 29t-30.5 77v350zM248 339q0 -58 17.5 -84t43.5 -26q25 0 43 26t18 84q0 59 -18 85t-43 26
q-26 0 -43.5 -26t-17.5 -85z" />
    <glyph glyph-name="S" unicode="S" 
d="M165 295q-24 0 -48 6.5t-43.5 22t-31.5 40t-12 60.5v146q0 36 12 60.5t31.5 40t43.5 22t48 6.5h299q24 0 48 -6.5t43.5 -22t31.5 -40t12 -60.5v-115h-139q-5 57 -25.5 82.5t-48.5 25.5q-32 0 -54 -24t-22 -75q0 -21 8 -33t26 -18t47.5 -7.5t72.5 -1.5q24 0 48 -6.5
t43.5 -22t31.5 -40t12 -60.5v-146q0 -36 -12 -60.5t-31.5 -40t-43.5 -22t-48 -6.5h-299q-24 0 -48 6.5t-43.5 22t-31.5 40t-12 60.5v115h139q5 -57 25.5 -82.5t48.5 -25.5q32 0 54 24t22 75q0 21 -8 33t-26 18t-47.5 7.5t-72.5 1.5z" />
    <glyph glyph-name="s" unicode="s" horiz-adv-x="503" 
d="M132 236q-19 0 -38.5 5.5t-35 17.5t-25 31.5t-9.5 48.5v117q0 29 9.5 48.5t25 31.5t35 17.5t38.5 5.5h239q19 0 38.5 -5.5t35 -17.5t25 -31.5t9.5 -48.5v-92h-111q-4 45 -20.5 65.5t-38.5 20.5q-26 0 -43.5 -19t-17.5 -60q0 -17 6.5 -26.5t21 -14.5t38 -6t57.5 -1
q19 0 38.5 -5.5t35 -17.5t25 -31.5t9.5 -48.5v-117q0 -29 -9.5 -48.5t-25 -31.5t-35 -17.5t-38.5 -5.5h-239q-19 0 -38.5 5.5t-35 17.5t-25 31.5t-9.5 48.5v92h111q4 -45 20.5 -65.5t38.5 -20.5q26 0 43.5 19t17.5 60q0 17 -6.5 26.5t-21 14.5t-38 6t-57.5 1z" />
    <glyph glyph-name="five" unicode="5" 
d="M30 345v354h569v-136h-289v-109h154q24 0 48 -6.5t43.5 -22t31.5 -40t12 -60.5v-196q0 -36 -12 -60.5t-31.5 -40t-43.5 -22t-48 -6.5h-299q-24 0 -48 6.5t-43.5 22t-31.5 40t-12 60.5v115h139q5 -57 25.5 -82.5t48.5 -25.5q32 0 54 24t22 75q0 21 -4 41t-19 35t-46 24.5
t-85 9.5h-135z" />
    <glyph glyph-name="six" unicode="6" 
d="M30 129v441q0 36 12 60.5t31.5 40t43.5 22t48 6.5h299q24 0 48 -6.5t43.5 -22t31.5 -40t12 -60.5v-115h-139q-5 57 -25.5 82.5t-48.5 25.5q-32 0 -54 -24t-22 -75q0 -21 8 -33t26 -18t47.5 -7.5t72.5 -1.5q24 0 48 -6.5t43.5 -22t31.5 -40t12 -60.5v-146q0 -36 -12 -60.5
t-31.5 -40t-43.5 -22t-48 -6.5h-299q-24 0 -48 6.5t-43.5 22t-31.5 40t-12 60.5zM460 216q0 35 -22 57t-54 22q-28 0 -51 -19t-23 -60t23 -60.5t51 -19.5q32 0 54 22.5t22 57.5z" />
    <glyph glyph-name="seven" unicode="7" 
d="M110 0l209 550h-289v149h569v-149l-209 -550h-280z" />
    <glyph glyph-name="eight" unicode="8" 
d="M178 0q-72 0 -110 36.5t-38 96.5v68q0 33 6 57t18 41.5t30 30.5t43 23q-50 14 -73.5 49.5t-23.5 102.5v65q0 36 12 60.5t31.5 40t43.5 22t48 6.5h299q24 0 48 -6.5t43.5 -22t31.5 -40t12 -60.5v-65q0 -67 -23.5 -102.5t-73.5 -49.5q25 -10 43 -23t30 -30.5t18 -41.5
t6 -57v-68q0 -60 -38 -96.5t-110 -36.5h-273zM310 491q0 -43 22 -58.5t54 -15.5t54 15.5t22 58.5t-22 57.5t-54 14.5t-54 -14.5t-22 -57.5zM310 210q0 -43 22 -63.5t54 -20.5t54 20.5t22 63.5t-22 62.5t-54 19.5t-54 -19.5t-22 -62.5z" />
    <glyph glyph-name="nine" unicode="9" 
d="M599 570v-441q0 -36 -12 -60.5t-31.5 -40t-43.5 -22t-48 -6.5h-299q-24 0 -48 6.5t-43.5 22t-31.5 40t-12 60.5v115h139q5 -57 25.5 -82.5t48.5 -25.5q32 0 54 24t22 75q0 21 -8 33t-26 18t-47.5 7.5t-72.5 1.5q-24 0 -48 6.5t-43.5 22t-31.5 40t-12 60.5v146
q0 36 12 60.5t31.5 40t43.5 22t48 6.5h299q24 0 48 -6.5t43.5 -22t31.5 -40t12 -60.5zM169 483q0 -35 22 -57t54 -22q28 0 51 19t23 60t-23 60.5t-51 19.5q-32 0 -54 -22.5t-22 -57.5z" />
    <glyph glyph-name="dollar" unicode="$" 
d="M394 800v-101h70q24 0 48 -6.5t43.5 -22t31.5 -40t12 -60.5v-115h-139q-5 57 -25.5 82.5t-48.5 25.5q-32 0 -54 -24t-22 -75q0 -21 8 -33t26 -18t47.5 -7.5t72.5 -1.5q24 0 48 -6.5t43.5 -22t31.5 -40t12 -60.5v-146q0 -36 -12 -60.5t-31.5 -40t-43.5 -22t-48 -6.5h-70
v-101h-139v101h-90q-24 0 -48 6.5t-43.5 22t-31.5 40t-12 60.5v115h139q5 -57 25.5 -82.5t48.5 -25.5q32 0 54 24t22 75q0 21 -8 33t-26 18t-47.5 7.5t-72.5 1.5q-24 0 -48 6.5t-43.5 22t-31.5 40t-12 60.5v146q0 36 12 60.5t31.5 40t43.5 22t48 6.5h90v101h139z" />
    <glyph glyph-name="three" unicode="3" 
d="M243 136q32 0 54 14.5t22 57.5t-22 58.5t-54 15.5v125q32 0 54 19.5t22 62.5t-22 63.5t-54 20.5q-28 0 -48.5 -30.5t-25.5 -87.5h-139v115q0 36 12 60.5t31.5 40t43.5 22t48 6.5h286q72 0 110 -36.5t38 -96.5v-68q0 -33 -6 -57t-18 -41.5t-30 -30t-43 -23.5
q50 -14 73.5 -49.5t23.5 -102.5v-65q0 -36 -12 -60.5t-31 -40t-43.5 -22t-48.5 -6.5h-299q-24 0 -48 6.5t-43.5 22t-31.5 40t-12 60.5v115h139q5 -57 25.5 -82.5t48.5 -25.5z" />
    <glyph glyph-name="four" unicode="4" 
d="M319 699h280v-699h-280v295h-289v404h139v-295h150v295z" />
    <glyph glyph-name="two" unicode="2" 
d="M464 295q-43 0 -72.5 -1.5t-47.5 -7.5t-26 -18t-8 -33v-99h289v-136h-569v275q0 36 12 60.5t31.5 40t43.5 22t48 6.5q43 0 72.5 1.5t47.5 7.5t26 18t8 33q0 51 -22 75t-54 24q-28 0 -48.5 -25.5t-25.5 -82.5h-139v115q0 36 12 60.5t31.5 40t43.5 22t48 6.5h299
q24 0 48 -6.5t43.5 -22t31.5 -40t12 -60.5v-146q0 -36 -12 -60.5t-31.5 -40t-43.5 -22t-48 -6.5z" />
    <glyph glyph-name="exclam" unicode="!" horiz-adv-x="280" 
d="M230 277h-180l-20 422h220zM220 0h-160v161h160v-161z" />
    <glyph glyph-name="colon" unicode=":" horiz-adv-x="280" 
d="M220 0h-160v161h160v-161zM220 398h-160v161h160v-161z" />
    <glyph glyph-name="comma" unicode="," horiz-adv-x="280" 
d="M220 0l-40 -130h-60l20 130h-80v161h160v-161z" />
    <glyph glyph-name="period" unicode="." horiz-adv-x="280" 
d="M220 0h-160v161h160v-161z" />
    <glyph glyph-name="question" unicode="?" 
d="M410 0h-160v161h160v-161zM30 570q0 36 12 60.5t31.5 40t43.5 22t48 6.5h299q24 0 48 -6.5t43.5 -22t31.5 -40t12 -60.5v-96q0 -34 -12 -57.5t-29.5 -40t-38 -29t-38 -25t-29.5 -28t-12 -37.5h-210q0 33 6.5 53.5t16.5 34.5t21.5 24.5t21.5 22.5t16.5 28.5t6.5 43.5
q0 51 -22 75t-54 24q-28 0 -48.5 -25.5t-25.5 -82.5h-139v115z" />
    <glyph glyph-name="equal" unicode="=" horiz-adv-x="409" 
d="M30 508h349v-136h-349v136zM30 228h349v-136h-349v136z" />
    <glyph glyph-name="less" unicode="&#x3c;" horiz-adv-x="409" 
d="M30 338l349 170v-136l-180 -72l180 -72v-136l-349 170v76z" />
    <glyph glyph-name="greater" unicode="&#x3e;" horiz-adv-x="409" 
d="M379 262l-349 -170v136l180 72l-180 72v136l349 -170v-76z" />
    <glyph glyph-name="numbersign" unicode="#" horiz-adv-x="642" 
d="M502 699v-96h97v-126h-97v-124h97v-126h-97v-97h-126v97h-124v-97h-126v97h-96v126h96v124h-96v126h96v96h126v-96h124v96h126zM252 353h124v124h-124v-124z" />
    <glyph glyph-name="quotedbl" unicode="&#x22;" horiz-adv-x="500" 
d="M220 538l-40 -130h-60l20 130h-80v161h160v-161zM440 538l-40 -130h-60l20 130h-80v161h160v-161z" />
    <glyph glyph-name="quotesingle" unicode="'" horiz-adv-x="280" 
d="M220 538l-40 -130h-60l20 130h-80v161h160v-161z" />
    <glyph glyph-name="quotesinglbase" unicode="&#x201a;" horiz-adv-x="280" 
d="M220 0l-40 -130h-60l20 130h-80v161h160v-161z" />
    <glyph glyph-name="quotedblbase" unicode="&#x201e;" horiz-adv-x="500" 
d="M220 0l-40 -130h-60l20 130h-80v161h160v-161zM440 0l-40 -130h-60l20 130h-80v161h160v-161z" />
    <glyph glyph-name="quoteright" unicode="&#x2019;" horiz-adv-x="280" 
d="M220 538l-40 -130h-60l20 130h-80v161h160v-161z" />
    <glyph glyph-name="quoteleft" unicode="&#x2018;" horiz-adv-x="280" 
d="M60 569l40 130h60l-20 -130h80v-161h-160v161z" />
    <glyph glyph-name="quotedblright" unicode="&#x201d;" horiz-adv-x="500" 
d="M220 538l-40 -130h-60l20 130h-80v161h160v-161zM440 538l-40 -130h-60l20 130h-80v161h160v-161z" />
    <glyph glyph-name="quotedblleft" unicode="&#x201c;" horiz-adv-x="500" 
d="M280 569l40 130h60l-20 -130h80v-161h-160v161zM60 569l40 130h60l-20 -130h80v-161h-160v161z" />
    <glyph glyph-name="acute" unicode="&#xb4;" horiz-adv-x="280" 
d="M120 598h-60l30 101h160z" />
    <glyph glyph-name="aacute" unicode="&#xe1;" horiz-adv-x="503" 
d="M370 0v202h-122v-202h-224v456q0 29 9.5 48.5t25 31.5t35 17.5t38.5 5.5h239q19 0 38.5 -5.5t35 -17.5t25 -31.5t9.5 -48.5v-456h-109zM370 339q0 59 -18 85t-43 26q-26 0 -43.5 -26t-17.5 -85v-13h122v13zM285 598h-60l30 101h160z" />
    <glyph glyph-name="eacute" unicode="&#xe9;" horiz-adv-x="503" 
d="M479 109v-109h-455v559h455v-109h-231v-116h231v-108h-231v-117h231zM273 598h-60l30 101h160z" />
    <glyph glyph-name="iacute" unicode="&#xed;" horiz-adv-x="503" 
d="M273 598h-60l30 101h160zM479 119v-119h-455v119h118v321h-118v119h455v-119h-113v-321h113z" />
    <glyph glyph-name="oacute" unicode="&#xf3;" horiz-adv-x="503" 
d="M273 598h-60l30 101h160zM24 456q0 29 9.5 48.5t25 31.5t35 17.5t38.5 5.5h239q19 0 38.5 -5.5t35 -17.5t25 -31.5t9.5 -48.5v-350q0 -48 -30 -77t-88 -29h-219q-57 0 -87.5 29t-30.5 77v350zM248 339q0 -58 17.5 -84t43.5 -26q25 0 43 26t18 84q0 59 -18 85t-43 26
q-26 0 -43.5 -26t-17.5 -85z" />
    <glyph glyph-name="uacute" unicode="&#xfa;" horiz-adv-x="503" 
d="M273 598h-60l30 101h160zM248 339q0 -58 17.5 -84t43.5 -26q25 0 43 26t18 84v220h109v-453q0 -48 -30 -77t-88 -29h-219q-57 0 -87.5 29t-30.5 77v453h224v-220z" />
    <glyph glyph-name="grave" unicode="`" horiz-adv-x="280" 
d="M60 699h160l30 -101h-60z" />
    <glyph glyph-name="agrave" unicode="&#xe0;" horiz-adv-x="503" 
d="M370 0v202h-122v-202h-224v456q0 29 9.5 48.5t25 31.5t35 17.5t38.5 5.5h239q19 0 38.5 -5.5t35 -17.5t25 -31.5t9.5 -48.5v-456h-109zM370 339q0 59 -18 85t-43 26q-26 0 -43.5 -26t-17.5 -85v-13h122v13zM135 699h160l30 -101h-60z" />
    <glyph glyph-name="egrave" unicode="&#xe8;" horiz-adv-x="503" 
d="M479 109v-109h-455v559h455v-109h-231v-116h231v-108h-231v-117h231zM123 699h160l30 -101h-60z" />
    <glyph glyph-name="igrave" unicode="&#xec;" horiz-adv-x="503" 
d="M123 699h160l30 -101h-60zM479 119v-119h-455v119h118v321h-118v119h455v-119h-113v-321h113z" />
    <glyph glyph-name="ograve" unicode="&#xf2;" horiz-adv-x="503" 
d="M123 699h160l30 -101h-60zM24 456q0 29 9.5 48.5t25 31.5t35 17.5t38.5 5.5h239q19 0 38.5 -5.5t35 -17.5t25 -31.5t9.5 -48.5v-350q0 -48 -30 -77t-88 -29h-219q-57 0 -87.5 29t-30.5 77v350zM248 339q0 -58 17.5 -84t43.5 -26q25 0 43 26t18 84q0 59 -18 85t-43 26
q-26 0 -43.5 -26t-17.5 -85z" />
    <glyph glyph-name="ugrave" unicode="&#xf9;" horiz-adv-x="503" 
d="M123 699h160l30 -101h-60zM248 339q0 -58 17.5 -84t43.5 -26q25 0 43 26t18 84v220h109v-453q0 -48 -30 -77t-88 -29h-219q-57 0 -87.5 29t-30.5 77v453h224v-220z" />
    <glyph glyph-name="circumflex" unicode="&#x2c6;" horiz-adv-x="440" 
d="M220 699l190 -101h-130l-60 41l-60 -41h-130z" />
    <glyph glyph-name="asciicircum" unicode="^" horiz-adv-x="500" 
d="M250 699l220 -371h-130l-90 191l-90 -191h-130z" />
    <glyph glyph-name="acircumflex" unicode="&#xe2;" horiz-adv-x="503" 
d="M370 0v202h-122v-202h-224v456q0 29 9.5 48.5t25 31.5t35 17.5t38.5 5.5h239q19 0 38.5 -5.5t35 -17.5t25 -31.5t9.5 -48.5v-456h-109zM370 339q0 59 -18 85t-43 26q-26 0 -43.5 -26t-17.5 -85v-13h122v13zM260 699l190 -101h-130l-60 41l-60 -41h-130z" />
    <glyph glyph-name="ecircumflex" unicode="&#xea;" horiz-adv-x="503" 
d="M260 699l190 -101h-130l-60 41l-60 -41h-130zM479 109v-109h-455v559h455v-109h-231v-116h231v-108h-231v-117h231z" />
    <glyph glyph-name="icircumflex" unicode="&#xee;" horiz-adv-x="503" 
d="M260 699l190 -101h-130l-60 41l-60 -41h-130zM479 119v-119h-455v119h118v321h-118v119h455v-119h-113v-321h113z" />
    <glyph glyph-name="ocircumflex" unicode="&#xf4;" horiz-adv-x="503" 
d="M260 699l190 -101h-130l-60 41l-60 -41h-130zM24 456q0 29 9.5 48.5t25 31.5t35 17.5t38.5 5.5h239q19 0 38.5 -5.5t35 -17.5t25 -31.5t9.5 -48.5v-350q0 -48 -30 -77t-88 -29h-219q-57 0 -87.5 29t-30.5 77v350zM248 339q0 -58 17.5 -84t43.5 -26q25 0 43 26t18 84
q0 59 -18 85t-43 26q-26 0 -43.5 -26t-17.5 -85z" />
    <glyph glyph-name="ucircumflex" unicode="&#xfb;" horiz-adv-x="503" 
d="M260 699l190 -101h-130l-60 41l-60 -41h-130zM248 339q0 -58 17.5 -84t43.5 -26q25 0 43 26t18 84v220h109v-453q0 -48 -30 -77t-88 -29h-219q-57 0 -87.5 29t-30.5 77v453h224v-220z" />
    <glyph glyph-name="slash" unicode="/" 
d="M220 -200h-190l379 1000h190z" />
    <glyph glyph-name="backslash" unicode="\" 
d="M30 800h190l379 -1000h-190z" />
    <glyph glyph-name="semicolon" unicode=";" horiz-adv-x="280" 
d="M220 0l-40 -130h-60l20 130h-80v161h160v-161zM220 398h-160v161h160v-161z" />
    <glyph glyph-name="semicolon" unicode="&#x37e;" horiz-adv-x="280" 
d="M220 0l-40 -130h-60l20 130h-80v161h160v-161zM220 398h-160v161h160v-161z" />
    <glyph glyph-name="underscore" unicode="_" horiz-adv-x="349" 
d="M30 -60h289v-76h-289v76z" />
    <glyph glyph-name="OE" unicode="&#x152;" horiz-adv-x="918" 
d="M888 136v-136h-710q-72 0 -110 36.5t-38 96.5v437q0 36 12 60.5t31.5 40t43.5 22t48 6.5h723v-136h-289v-145h289v-136h-289v-146h289zM310 424q0 -73 22 -105.5t54 -32.5t54 32.5t22 105.5t-22 106t-54 33t-54 -33t-22 -106z" />
    <glyph glyph-name="oe" unicode="&#x153;" horiz-adv-x="734" 
d="M710 109v-109h-568q-57 0 -87.5 29t-30.5 77v350q0 29 9.5 48.5t25 31.5t35 17.5t38.5 5.5h578v-109h-231v-116h231v-108h-231v-117h231zM248 339q0 -58 17.5 -84t43.5 -26q25 0 43 26t18 84q0 59 -18 85t-43 26q-26 0 -43.5 -26t-17.5 -85z" />
    <glyph glyph-name="bracketleft" unicode="[" horiz-adv-x="429" 
d="M220 -64h179v-136h-369v1000h369v-136h-179v-728z" />
    <glyph glyph-name="bracketright" unicode="]" horiz-adv-x="429" 
d="M209 664h-179v136h369v-1000h-369v136h179v728z" />
    <glyph glyph-name="plus" unicode="+" horiz-adv-x="449" 
d="M272 484v-146h147v-96h-147v-147h-96v147h-146v96h146v146h96z" />
    <glyph glyph-name="parenleft" unicode="(" horiz-adv-x="429" 
d="M220 35q0 -51 22 -75t54 -24h103v-136h-221q-72 0 -110 36.5t-38 96.5v738q0 36 12 60.5t31.5 40t43.5 22t48 6.5h234v-136h-103q-32 0 -54 -24t-22 -75v-530z" />
    <glyph glyph-name="parenright" unicode=")" horiz-adv-x="429" 
d="M209 565q0 51 -22 75t-54 24h-103v136h234q24 0 48 -6.5t43.5 -22t31.5 -40t12 -60.5v-738q0 -60 -38 -96.5t-110 -36.5h-221v136h103q32 0 54 24t22 75v530z" />
    <glyph glyph-name="percent" unicode="%" 
d="M30 590q0 23 8.5 42.5t23.5 34.5t35 23.5t42 8.5q23 0 42.5 -8.5t34.5 -23.5t23.5 -34.5t8.5 -42.5q0 -22 -8.5 -42t-23.5 -35t-34.5 -23.5t-42.5 -8.5q-22 0 -42 8.5t-35 23.5t-23.5 35t-8.5 42zM80 590q0 -25 17 -42t42 -17t42 17t17 42t-17 42t-42 17t-42 -17t-17 -42
zM381 109q0 23 8.5 42.5t23.5 34.5t35 23.5t42 8.5q23 0 42.5 -8.5t34.5 -23.5t23.5 -34.5t8.5 -42.5q0 -22 -8.5 -42t-23.5 -35t-34.5 -23.5t-42.5 -8.5q-22 0 -42 8.5t-35 23.5t-23.5 35t-8.5 42zM431 109q0 -25 17 -42t42 -17t42 17t17 42t-17 42t-42 17t-42 -17t-17 -42
zM160 0h-110l419 700h110z" />
    <glyph glyph-name="guilsinglleft" unicode="&#x2039;" horiz-adv-x="409" 
d="M30 318l349 241v-96l-180 -183l180 -184v-96l-349 242v76z" />
    <glyph glyph-name="guilsinglright" unicode="&#x203a;" horiz-adv-x="409" 
d="M379 242l-349 -242v96l180 184l-180 183v96l349 -241v-76z" />
    <glyph glyph-name="guillemotleft" unicode="&#xab;" horiz-adv-x="509" 
d="M30 318l209 241v-96l-100 -183l100 -184v-96l-209 242v76zM270 318l209 241v-96l-100 -183l100 -184v-96l-209 242v76z" />
    <glyph glyph-name="guillemotright" unicode="&#xbb;" horiz-adv-x="509" 
d="M479 242l-209 -242v96l100 184l-100 183v96l209 -241v-76zM239 242l-209 -242v96l100 184l-100 183v96l209 -241v-76z" />
    <glyph glyph-name="sterling" unicode="&#xa3;" 
d="M30 368h50v202q0 36 12 60.5t31.5 40t43.5 22t48 6.5h249q24 0 48 -6.5t43.5 -22t31.5 -40t12 -60.5v-115h-139q-5 57 -25.5 82.5t-48.5 25.5q-32 0 -54 -24t-22 -75v-96h109v-96h-109v-86h289v-186h-569v186h50v86h-50v96z" />
    <glyph glyph-name="Oslash" unicode="&#xd8;" 
d="M30 570q0 36 12 60.5t31.5 40t43.5 22t48 6.5h257l47 101h110l-53 -113q31 -12 52 -40.5t21 -76.5v-437q0 -60 -38 -96.5t-110 -36.5h-245l-46 -100h-110l53 114q-36 16 -54.5 46.5t-18.5 72.5v437zM310 424q0 -73 22 -105.5t54 -32.5t54 32.5t22 105.5t-22 106t-54 33
t-54 -33t-22 -106z" />
    <glyph glyph-name="cent" unicode="&#xa2;" horiz-adv-x="503" 
d="M248 339q0 -58 17.5 -84t43.5 -26q22 0 38.5 20t20.5 65h111v-208q0 -48 -30 -77t-88 -29h-196l-37 -80h-88l42 91q-29 13 -43.5 37.5t-14.5 57.5v350q0 29 9.5 48.5t25 31.5t35 17.5t38.5 5.5h206l37 81h88l-42 -90q25 -10 41.5 -33t16.5 -61v-92h-111q-4 45 -20.5 65.5
t-38.5 20.5q-26 0 -43.5 -26t-17.5 -85z" />
    <glyph glyph-name="oslash" unicode="&#xf8;" horiz-adv-x="503" 
d="M24 456q0 29 9.5 48.5t25 31.5t35 17.5t38.5 5.5h206l37 81h88l-42 -90q25 -10 41.5 -33t16.5 -61v-350q0 -48 -30 -77t-88 -29h-196l-37 -80h-88l42 91q-29 13 -43.5 37.5t-14.5 57.5v350zM248 339q0 -58 17.5 -84t43.5 -26q25 0 43 26t18 84q0 59 -18 85t-43 26
q-26 0 -43.5 -26t-17.5 -85z" />
    <glyph glyph-name="Agrave" unicode="&#xc0;" 
d="M462 0v252h-152v-252h-280v570q0 36 12 60.5t31.5 40t43.5 22t48 6.5h299q24 0 48 -6.5t43.5 -22t31.5 -40t12 -60.5v-570h-137zM462 424q0 73 -22 106t-54 33t-54 -33t-22 -106v-16h152v16zM230 799.711h160l30 -92h-60z" />
    <glyph glyph-name="Aacute" unicode="&#xc1;" 
d="M462 0v252h-152v-252h-280v570q0 36 12 60.5t31.5 40t43.5 22t48 6.5h299q24 0 48 -6.5t43.5 -22t31.5 -40t12 -60.5v-570h-137zM462 424q0 73 -22 106t-54 33t-54 -33t-22 -106v-16h152v16zM359.37 707.711h-59.6846l29.8418 92h159.16z" />
    <glyph glyph-name="Acircumflex" unicode="&#xc2;" 
d="M462 0v252h-152v-252h-280v570q0 36 12 60.5t31.5 40t43.5 22t48 6.5h299q24 0 48 -6.5t43.5 -22t31.5 -40t12 -60.5v-570h-137zM462 424q0 73 -22 106t-54 33t-54 -33t-22 -106v-16h152v16zM347 799.889l190 -90.0029h-130l-60 36.5361l-60 -36.5361h-130z" />
    <glyph glyph-name="Egrave" unicode="&#xc8;" 
d="M230 799.711h160l30 -92h-60zM599 136v-136h-569v699h569v-136h-289v-145h289v-136h-289v-146h289z" />
    <glyph glyph-name="Eacute" unicode="&#xc9;" 
d="M359.37 707.711h-59.6846l29.8418 92h159.16zM599 136v-136h-569v699h569v-136h-289v-145h289v-136h-289v-146h289z" />
    <glyph glyph-name="Ecircumflex" unicode="&#xca;" 
d="M347 799.889l190 -90.0029h-130l-60 36.5361l-60 -36.5361h-130zM599 136v-136h-569v699h569v-136h-289v-145h289v-136h-289v-146h289z" />
    <glyph glyph-name="Ograve" unicode="&#xd2;" 
d="M230 799.711h160l30 -92h-60zM30 570q0 36 12 60.5t31.5 40t43.5 22t48 6.5h299q24 0 48 -6.5t43.5 -22t31.5 -40t12 -60.5v-437q0 -60 -38 -96.5t-110 -36.5h-273q-72 0 -110 36.5t-38 96.5v437zM310 424q0 -73 22 -105.5t54 -32.5t54 32.5t22 105.5t-22 106t-54 33
t-54 -33t-22 -106z" />
    <glyph glyph-name="Oacute" unicode="&#xd3;" 
d="M359.37 707.711h-59.6846l29.8418 92h159.16zM30 570q0 36 12 60.5t31.5 40t43.5 22t48 6.5h299q24 0 48 -6.5t43.5 -22t31.5 -40t12 -60.5v-437q0 -60 -38 -96.5t-110 -36.5h-273q-72 0 -110 36.5t-38 96.5v437zM310 424q0 -73 22 -105.5t54 -32.5t54 32.5t22 105.5
t-22 106t-54 33t-54 -33t-22 -106z" />
    <glyph glyph-name="Ocircumflex" unicode="&#xd4;" 
d="M347 799.889l190 -90.0029h-130l-60 36.5361l-60 -36.5361h-130zM30 570q0 36 12 60.5t31.5 40t43.5 22t48 6.5h299q24 0 48 -6.5t43.5 -22t31.5 -40t12 -60.5v-437q0 -60 -38 -96.5t-110 -36.5h-273q-72 0 -110 36.5t-38 96.5v437zM310 424q0 -73 22 -105.5t54 -32.5
t54 32.5t22 105.5t-22 106t-54 33t-54 -33t-22 -106z" />
    <glyph glyph-name="Ugrave" unicode="&#xd9;" 
d="M230 799.711h160l30 -92h-60zM310 424q0 -73 22 -105.5t54 -32.5t54 32.5t22 105.5v275h137v-566q0 -60 -38 -96.5t-110 -36.5h-273q-72 0 -110 36.5t-38 96.5v566h280v-275z" />
    <glyph glyph-name="Uacute" unicode="&#xda;" 
d="M359.37 707.711h-59.6846l29.8418 92h159.16zM310 424q0 -73 22 -105.5t54 -32.5t54 32.5t22 105.5v275h137v-566q0 -60 -38 -96.5t-110 -36.5h-273q-72 0 -110 36.5t-38 96.5v566h280v-275z" />
    <glyph glyph-name="Ucircumflex" unicode="&#xdb;" 
d="M347 799.889l190 -90.0029h-130l-60 36.5361l-60 -36.5361h-130zM310 424q0 -73 22 -105.5t54 -32.5t54 32.5t22 105.5v275h137v-566q0 -60 -38 -96.5t-110 -36.5h-273q-72 0 -110 36.5t-38 96.5v566h280v-275z" />
    <glyph glyph-name="AE" unicode="&#xc6;" horiz-adv-x="918" 
d="M888 136v-136h-426v252h-152v-252h-280v570q0 36 12 60.5t31.5 40t43.5 22t48 6.5h723v-136h-289v-145h289v-136h-289v-146h289zM462 424q0 73 -22 106t-54 33t-54 -33t-22 -106v-16h152v16z" />
    <glyph glyph-name="ae" unicode="&#xe6;" horiz-adv-x="734" 
d="M710 109v-109h-340v202h-122v-202h-224v456q0 29 9.5 48.5t25 31.5t35 17.5t38.5 5.5h578v-109h-231v-116h231v-108h-231v-117h231zM370 339q0 59 -18 85t-43 26q-26 0 -43.5 -26t-17.5 -85v-13h122v13z" />
    <glyph glyph-name="questiondown" unicode="&#xbf;" 
d="M219 699h160v-161h-160v161zM599 244h-139q-5 -57 -25.5 -82.5t-48.5 -25.5q-32 0 -54 24t-22 75q0 27 6.5 43.5t16.5 28.5t21.5 22.5t21.5 24.5t16.5 34.5t6.5 53.5h-210q0 -22 -12 -37.5t-29.5 -28t-38 -25t-38 -29t-29.5 -40t-12 -57.5v-96q0 -36 12 -60.5t31.5 -40
t43.5 -22t48 -6.5h299q24 0 48 6.5t43.5 22t31.5 40t12 60.5v115z" />
    <glyph glyph-name="exclamdown" unicode="&#xa1;" horiz-adv-x="280" 
d="M50 422h180l20 -422h-220zM60 699h160v-161h-160v161z" />
    <glyph glyph-name="florin" unicode="&#x192;" horiz-adv-x="634" 
d="M205 389v305q0 48 30 77t88 29h287v-119h-120q-26 0 -43.5 -26t-17.5 -84v-182h181v-119h-181v-364q0 -48 -30 -77t-88 -29h-287v119h120q26 0 43.5 26t17.5 84v241h-181v119h181z" />
    <glyph glyph-name="dieresis" unicode="&#xa8;" horiz-adv-x="440" 
d="M140 588h-110v111h110v-111zM410 588h-110v111h110v-111z" />
    <glyph glyph-name="Adieresis" unicode="&#xc4;" 
d="M462 0v252h-152v-252h-280v570q0 36 12 60.5t31.5 40t43.5 22t48 6.5h299q24 0 48 -6.5t43.5 -22t31.5 -40t12 -60.5v-570h-137zM462 424q0 73 -22 106t-54 33t-54 -33t-22 -106v-16h152v16zM275.109 709.745h-88.8721v89.998h88.8721v-89.998zM493.248 709.745h-88.8711
v89.998h88.8711v-89.998z" />
    <glyph glyph-name="Edieresis" unicode="&#xcb;" 
d="M275.109 709.745h-88.8721v89.998h88.8721v-89.998zM493.248 709.745h-88.8711v89.998h88.8711v-89.998zM599 136v-136h-569v699h569v-136h-289v-145h289v-136h-289v-146h289z" />
    <glyph glyph-name="Idieresis" unicode="&#xcf;" 
d="M255.109 709.745h-88.8721v89.998h88.8721v-89.998zM473.248 709.745h-88.8711v89.998h88.8711v-89.998zM599 149v-149h-569v149h147v401h-147v149h569v-149h-142v-401h142z" />
    <glyph glyph-name="Odieresis" unicode="&#xd6;" 
d="M275.109 709.745h-88.8721v89.998h88.8721v-89.998zM493.248 709.745h-88.8711v89.998h88.8711v-89.998zM30 570q0 36 12 60.5t31.5 40t43.5 22t48 6.5h299q24 0 48 -6.5t43.5 -22t31.5 -40t12 -60.5v-437q0 -60 -38 -96.5t-110 -36.5h-273q-72 0 -110 36.5t-38 96.5v437
zM310 424q0 -73 22 -105.5t54 -32.5t54 32.5t22 105.5t-22 106t-54 33t-54 -33t-22 -106z" />
    <glyph glyph-name="Udieresis" unicode="&#xdc;" 
d="M275.109 709.745h-88.8721v89.998h88.8721v-89.998zM493.248 709.745h-88.8711v89.998h88.8711v-89.998zM310 424q0 -73 22 -105.5t54 -32.5t54 32.5t22 105.5v275h137v-566q0 -60 -38 -96.5t-110 -36.5h-273q-72 0 -110 36.5t-38 96.5v566h280v-275z" />
    <glyph glyph-name="Igrave" unicode="&#xcc;" 
d="M200 799.711h160l30 -92h-60zM599 149v-149h-569v149h147v401h-147v149h569v-149h-142v-401h142z" />
    <glyph glyph-name="Iacute" unicode="&#xcd;" 
d="M349.37 707.711h-59.6846l29.8418 92h159.16zM599 149v-149h-569v149h147v401h-147v149h569v-149h-142v-401h142z" />
    <glyph glyph-name="Icircumflex" unicode="&#xce;" 
d="M337 799.889l190 -90.0029h-130l-60 36.5361l-60 -36.5361h-130zM599 149v-149h-569v149h147v401h-147v149h569v-149h-142v-401h142z" />
    <glyph glyph-name="adieresis" unicode="&#xe4;" horiz-adv-x="503" 
d="M370 0v202h-122v-202h-224v456q0 29 9.5 48.5t25 31.5t35 17.5t38.5 5.5h239q19 0 38.5 -5.5t35 -17.5t25 -31.5t9.5 -48.5v-456h-109zM370 339q0 59 -18 85t-43 26q-26 0 -43.5 -26t-17.5 -85v-13h122v13zM180 588h-110v111h110v-111zM450 588h-110v111h110v-111z" />
    <glyph glyph-name="edieresis" unicode="&#xeb;" horiz-adv-x="503" 
d="M180 588h-110v111h110v-111zM450 588h-110v111h110v-111zM479 109v-109h-455v559h455v-109h-231v-116h231v-108h-231v-117h231z" />
    <glyph glyph-name="idieresis" unicode="&#xef;" horiz-adv-x="503" 
d="M170 588h-110v111h110v-111zM440 588h-110v111h110v-111zM479 119v-119h-455v119h118v321h-118v119h455v-119h-113v-321h113z" />
    <glyph glyph-name="odieresis" unicode="&#xf6;" horiz-adv-x="503" 
d="M180 588h-110v111h110v-111zM450 588h-110v111h110v-111zM24 456q0 29 9.5 48.5t25 31.5t35 17.5t38.5 5.5h239q19 0 38.5 -5.5t35 -17.5t25 -31.5t9.5 -48.5v-350q0 -48 -30 -77t-88 -29h-219q-57 0 -87.5 29t-30.5 77v350zM248 339q0 -58 17.5 -84t43.5 -26q25 0 43 26
t18 84q0 59 -18 85t-43 26q-26 0 -43.5 -26t-17.5 -85z" />
    <glyph glyph-name="udieresis" unicode="&#xfc;" horiz-adv-x="503" 
d="M180 588h-110v111h110v-111zM450 588h-110v111h110v-111zM248 339q0 -58 17.5 -84t43.5 -26q25 0 43 26t18 84v220h109v-453q0 -48 -30 -77t-88 -29h-219q-57 0 -87.5 29t-30.5 77v453h224v-220z" />
    <glyph glyph-name="ydieresis" unicode="&#xff;" horiz-adv-x="503" 
d="M180 588h-110v111h110v-111zM450 588h-110v111h110v-111zM142 0v302l-117 257h152l75 -179l75 179h152l-113 -249v-310h-224z" />
    <glyph glyph-name="Ydieresis" unicode="&#x178;" 
d="M265.109 709.745h-88.8721v89.998h88.8721v-89.998zM483.248 709.745h-88.8711v89.998h88.8711v-89.998zM177 0v378l-146 321h190l94 -224l94 224h190l-142 -312v-387h-280z" />
    <glyph glyph-name="endash" unicode="&#x2013;" 
d="M30 338h569v-96h-569v96z" />
    <glyph glyph-name="emdash" unicode="&#x2014;" horiz-adv-x="861" 
d="M30 338h801v-96h-801v96z" />
    <glyph glyph-name="K" unicode="K" 
d="M310 0h-280v699h280v-279q20 0 46 6t49.5 25.5t40 56.5t16.5 100v91h137v-107q0 -74 -23.5 -111.5t-73.5 -60.5q42 -15 69.5 -51.5t27.5 -99.5v-269h-137v91q0 70 -15 109t-37.5 57.5t-49.5 22.5t-50 4v-284z" />
    <glyph glyph-name="hyphen" unicode="-" horiz-adv-x="349" 
d="M30 358h289v-136h-289v136z" />
    <glyph glyph-name="bar" unicode="|" horiz-adv-x="250" 
d="M220 -200h-190v1000h190v-1000z" />
    <glyph glyph-name="braceleft" unicode="{" horiz-adv-x="541" 
d="M30 217v186h36q32 0 54 24t22 75v169q0 36 12 60.5t31.5 40t43.5 22t48 6.5h234v-136h-103q-32 0 -54 -24t-22 -75v-530q0 -51 22 -75t54 -24h103v-136h-221q-72 0 -110 36.5t-38 96.5v185q0 51 -22 75t-54 24h-36z" />
    <glyph glyph-name="braceright" unicode="}" horiz-adv-x="541" 
d="M475 217q-32 0 -54 -24t-22 -75v-185q0 -60 -38 -96.5t-110 -36.5h-221v136h103q32 0 54 24t22 75v530q0 51 -22 75t-54 24h-103v136h234q24 0 48 -6.5t43.5 -22t31.5 -40t12 -60.5v-169q0 -51 22 -75t54 -24h36v-186h-36z" />
    <glyph glyph-name="yen" unicode="&#xa5;" 
d="M177 0v152h-147v86h147v94h-147v86h129l-128 281h190l94 -224l94 224h190l-128 -281h128v-86h-142v-94h142v-86h-142v-152h-280z" />
    <glyph glyph-name="at" unicode="@" horiz-adv-x="822" 
d="M587 112v365q0 23 -7.5 38.5t-20 25.5t-28 14t-30.5 4h-191q-15 0 -30.5 -4t-28 -14t-20.5 -25.5t-8 -38.5v-365h179v162h98v-162h87zM500 373h-98v10q0 48 14.5 68.5t34.5 20.5t34.5 -20.5t14.5 -68.5v-10zM20 333q0 81 30.5 152t84 124.5t124.5 84t152 30.5t152 -30.5
t124.5 -84t84 -124.5t30.5 -152t-30.5 -152t-84 -124.5t-124.5 -84t-152 -30.5t-152 30.5t-124.5 84t-84 124.5t-30.5 152z" />
    <glyph glyph-name="asterisk" unicode="*" horiz-adv-x="468" 
d="M282 699v-429h-96v429h96zM282 699v-429h-96v429h96zM396 633l48 -83l-371 -214l-48 83zM72 633l371 -214l-48 -83l-371 214z" />
    <glyph glyph-name="logicalnot" unicode="&#xac;" horiz-adv-x="449" 
d="M30 388h389v-216h-79v120h-310v96z" />
    <glyph glyph-name="D" unicode="D" 
d="M30 699h434q24 0 48 -6.5t43.5 -22t31.5 -40t12 -60.5v-437q0 -60 -38 -96.5t-110 -36.5h-421v699zM310 424q0 -73 22 -105.5t54 -32.5t54 32.5t22 105.5t-22 106t-54 33t-54 -33t-22 -106z" />
    <glyph glyph-name="U" unicode="U" 
d="M310 424q0 -73 22 -105.5t54 -32.5t54 32.5t22 105.5v275h137v-566q0 -60 -38 -96.5t-110 -36.5h-273q-72 0 -110 36.5t-38 96.5v566h280v-275z" />
    <glyph glyph-name="C" unicode="C" 
d="M310 424q0 -73 22 -105.5t54 -32.5q28 0 48.5 25t25.5 82h139v-260q0 -60 -38 -96.5t-110 -36.5h-273q-72 0 -110 36.5t-38 96.5v437q0 36 12 60.5t31.5 40t43.5 22t48 6.5h299q24 0 48 -6.5t43.5 -22t31.5 -40t12 -60.5v-115h-139q-5 57 -25.5 82.5t-48.5 25.5
q-32 0 -54 -33t-22 -106z" />
    <glyph glyph-name="trademark" unicode="&#x2122;" horiz-adv-x="1082" 
d="M293 252h-179v352h-95v95h364v-95h-90v-352zM558 516l-48 -264h-88l94 447h175l51 -240l51 240h174l95 -447h-179l-49 264l-48 -264h-180z" />
    <glyph glyph-name="mu" unicode="&#xb5;" horiz-adv-x="503" 
d="M248 -160h-224v719h224v-220q0 -58 17.5 -84t43.5 -26q25 0 43 26t18 84v220h109v-559h-231v-160z" />
    <glyph glyph-name="mu" unicode="&#x3bc;" horiz-adv-x="503" 
d="M248 -160h-224v719h224v-220q0 -58 17.5 -84t43.5 -26q25 0 43 26t18 84v220h109v-559h-231v-160z" />
    <glyph glyph-name="ordmasculine" unicode="&#xba;" horiz-adv-x="402" 
d="M19 617q0 23 8 38.5t20.5 25.5t28 14t30.5 4h191q15 0 30.5 -4t28 -14t20 -25.5t7.5 -38.5v-280q0 -38 -24 -61.5t-70 -23.5h-175q-46 0 -70.5 23.5t-24.5 61.5v280zM198 523q0 -46 14.5 -67t34.5 -21t34.5 21t14.5 67q0 48 -14.5 68.5t-34.5 20.5t-34.5 -20.5
t-14.5 -68.5z" />
    <glyph glyph-name="ordfeminine" unicode="&#xaa;" horiz-adv-x="402" 
d="M296 252v162h-98v-162h-179v365q0 23 8 38.5t20.5 25.5t28 14t30.5 4h191q15 0 30.5 -4t28 -14t20 -25.5t7.5 -38.5v-365h-87zM296 523q0 48 -14.5 68.5t-34.5 20.5t-34.5 -20.5t-14.5 -68.5v-10h98v10z" />
    <glyph glyph-name="copyright" unicode="&#xa9;" horiz-adv-x="822" 
d="M402 383q0 48 14.5 68.5t34.5 20.5q17 0 30.5 -16.5t16.5 -52.5h89v74q0 23 -7.5 38.5t-20 25.5t-28 14t-30.5 4h-191q-15 0 -30.5 -4t-28 -14t-20.5 -25.5t-8 -38.5v-280q0 -38 24.5 -61.5t70.5 -23.5h175q46 0 70 23.5t24 61.5v166h-89q-3 -36 -16.5 -52t-30.5 -16
q-20 0 -34.5 21t-14.5 67zM20 333q0 81 30.5 152t84 124.5t124.5 84t152 30.5t152 -30.5t124.5 -84t84 -124.5t30.5 -152t-30.5 -152t-84 -124.5t-124.5 -84t-152 -30.5t-152 30.5t-124.5 84t-84 124.5t-30.5 152z" />
    <glyph glyph-name="registered" unicode="&#xae;" horiz-adv-x="822" 
d="M402 258q11 0 27.5 -3.5t32 -14.5t27 -32.5t11.5 -56.5v-39h87v70q0 17 -4.5 33.5t-12.5 30t-18.5 23.5t-21.5 13q23 6 40 24.5t17 53.5v117q0 23 -7.5 38.5t-20 25.5t-28 14t-30.5 4h-278v-447h179v146zM402 409q0 32 14.5 47.5t34.5 15.5t34.5 -15.5t14.5 -47.5
t-14.5 -47.5t-34.5 -15.5t-34.5 15.5t-14.5 47.5zM20 333q0 81 30.5 152t84 124.5t124.5 84t152 30.5t152 -30.5t124.5 -84t84 -124.5t30.5 -152t-30.5 -152t-84 -124.5t-124.5 -84t-152 -30.5t-152 30.5t-124.5 84t-84 124.5t-30.5 152z" />
    <glyph glyph-name="degree" unicode="&#xb0;" horiz-adv-x="278" 
d="M30 590q0 23 8.5 42.5t23.5 34.5t35 23.5t42 8.5q23 0 42.5 -8.5t34.5 -23.5t23.5 -34.5t8.5 -42.5q0 -22 -8.5 -42t-23.5 -35t-34.5 -23.5t-42.5 -8.5q-22 0 -42 8.5t-35 23.5t-23.5 35t-8.5 42zM80 590q0 -25 17 -42t42 -17t42 17t17 42t-17 42t-42 17t-42 -17t-17 -42
z" />
    <glyph glyph-name="periodcentered" unicode="&#xb7;" horiz-adv-x="280" 
d="M220 210h-160v161h160v-161z" />
    <glyph glyph-name="periodcentered" unicode="&#x2219;" horiz-adv-x="280" 
d="M220 210h-160v161h160v-161z" />
    <glyph glyph-name="germandbls" unicode="&#xdf;" horiz-adv-x="1006" 
d="M132 236q-19 0 -38.5 5.5t-35 17.5t-25 31.5t-9.5 48.5v117q0 29 9.5 48.5t25 31.5t35 17.5t38.5 5.5h239q19 0 38.5 -5.5t35 -17.5t25 -31.5t9.5 -48.5v-92h-111q-4 45 -20.5 65.5t-38.5 20.5q-26 0 -43.5 -19t-17.5 -60q0 -17 6.5 -26.5t21 -14.5t38 -6t57.5 -1
q19 0 38.5 -5.5t35 -17.5t25 -31.5t9.5 -48.5v-117q0 -29 -9.5 -48.5t-25 -31.5t-35 -17.5t-38.5 -5.5h-239q-19 0 -38.5 5.5t-35 17.5t-25 31.5t-9.5 48.5v92h111q4 -45 20.5 -65.5t38.5 -20.5q26 0 43.5 19t17.5 60q0 17 -6.5 26.5t-21 14.5t-38 6t-57.5 1zM635 236
q-19 0 -38.5 5.5t-35 17.5t-25 31.5t-9.5 48.5v117q0 29 9.5 48.5t25 31.5t35 17.5t38.5 5.5h239q19 0 38.5 -5.5t35 -17.5t25 -31.5t9.5 -48.5v-92h-111q-4 45 -20.5 65.5t-38.5 20.5q-26 0 -43.5 -19t-17.5 -60q0 -17 6.5 -26.5t21 -14.5t38 -6t57.5 -1q19 0 38.5 -5.5
t35 -17.5t25 -31.5t9.5 -48.5v-117q0 -29 -9.5 -48.5t-25 -31.5t-35 -17.5t-38.5 -5.5h-239q-19 0 -38.5 5.5t-35 17.5t-25 31.5t-9.5 48.5v92h111q4 -45 20.5 -65.5t38.5 -20.5q26 0 43.5 19t17.5 60q0 17 -6.5 26.5t-21 14.5t-38 6t-57.5 1z" />
    <glyph glyph-name="aring" unicode="&#xe5;" horiz-adv-x="503" 
d="M211 642q0 24 16.5 40.5t40.5 16.5q23 0 39.5 -16.5t16.5 -40.5q0 -23 -16.5 -39.5t-39.5 -16.5q-24 0 -40.5 16.5t-16.5 39.5zM237 642q0 -13 8.5 -21.5t22.5 -8.5q13 0 21.5 8.5t8.5 21.5q0 14 -8.5 22.5t-21.5 8.5q-14 0 -22.5 -8.5t-8.5 -22.5zM370 0v202h-122v-202
h-224v456q0 29 9.5 48.5t25 31.5t35 17.5t38.5 5.5h239q19 0 38.5 -5.5t35 -17.5t25 -31.5t9.5 -48.5v-456h-109zM370 339q0 59 -18 85t-43 26q-26 0 -43.5 -26t-17.5 -85v-13h122v13z" />
    <glyph glyph-name="Aring" unicode="&#xc5;" 
d="M324.425 753.683q0 19.54 13.4326 32.9736q13.4336 13.4336 32.9736 13.4336q18.7256 0 32.1582 -13.4336q13.4336 -13.4336 13.4336 -32.9736q0 -18.7246 -13.4336 -32.1582q-13.4326 -13.4336 -32.1582 -13.4336q-19.54 0 -32.9736 13.4336
q-13.4326 13.4336 -13.4326 32.1582zM345.592 753.683q0 -10.584 6.9209 -17.5039q6.91992 -6.91992 18.3184 -6.91992q10.584 0 17.5039 6.91992t6.91992 17.5039q0 11.3984 -6.91992 18.3184q-6.91992 6.9209 -17.5039 6.9209q-11.3984 0 -18.3184 -6.9209
q-6.9209 -6.91992 -6.9209 -18.3184zM462 0v252h-152v-252h-280v570q0 36 12 60.5t31.5 40t43.5 22t48 6.5h299q24 0 48 -6.5t43.5 -22t31.5 -40t12 -60.5v-570h-137zM462 424q0 73 -22 106t-54 33t-54 -33t-22 -106v-16h152v16z" />
    <glyph glyph-name="divide" unicode="&#xf7;" horiz-adv-x="449" 
d="M30 242h389v96h-389v-96zM280 0h-120v121h120v-121zM280 438h-120v121h120v-121z" />
    <glyph glyph-name="plusminus" unicode="&#xb1;" horiz-adv-x="449" 
d="M30 208h389v-96h-389v96zM272 614v-146h147v-96h-147v-147h-96v147h-146v96h146v146h96z" />
    <glyph glyph-name="perthousand" unicode="&#x2030;" horiz-adv-x="907" 
d="M30 590q0 23 8.5 42.5t23.5 34.5t35 23.5t42 8.5q23 0 42.5 -8.5t34.5 -23.5t23.5 -34.5t8.5 -42.5q0 -22 -8.5 -42t-23.5 -35t-34.5 -23.5t-42.5 -8.5q-22 0 -42 8.5t-35 23.5t-23.5 35t-8.5 42zM80 590q0 -25 17 -42t42 -17t42 17t17 42t-17 42t-42 17t-42 -17t-17 -42
zM381 109q0 23 8.5 42.5t23.5 34.5t35 23.5t42 8.5q23 0 42.5 -8.5t34.5 -23.5t23.5 -34.5t8.5 -42.5q0 -22 -8.5 -42t-23.5 -35t-34.5 -23.5t-42.5 -8.5q-22 0 -42 8.5t-35 23.5t-23.5 35t-8.5 42zM431 109q0 -25 17 -42t42 -17t42 17t17 42t-17 42t-42 17t-42 -17t-17 -42
zM160 0h-110l419 700h110zM659 109q0 23 8.5 42.5t23.5 34.5t35 23.5t42 8.5q23 0 42.5 -8.5t34.5 -23.5t23.5 -34.5t8.5 -42.5q0 -22 -8.5 -42t-23.5 -35t-34.5 -23.5t-42.5 -8.5q-22 0 -42 8.5t-35 23.5t-23.5 35t-8.5 42zM709 109q0 -25 17 -42t42 -17t42 17t17 42
t-17 42t-42 17t-42 -17t-17 -42z" />
    <glyph glyph-name="ampersand" unicode="&#x26;" horiz-adv-x="659" 
d="M599 129q0 -36 -12 -60.5t-31.5 -40t-43.5 -22t-48 -6.5h-299q-24 0 -48.5 6.5t-43.5 22t-31 40t-12 60.5v65q0 67 23.5 102.5t73.5 49.5q-25 11 -43 23.5t-30 30t-18 41.5t-6 57v68q0 60 38 96.5t110 36.5h286q24 0 48 -6.5t43.5 -22t31.5 -40t12 -60.5v-75h-139
q-5 42 -25.5 60t-48.5 18q-32 0 -54 -20.5t-22 -63.5t22 -62.5t54 -19.5h243v-125h-30v-153zM310 208q0 -43 22 -57.5t54 -14.5q28 0 49 21t25 77v48h-74q-32 0 -54 -15.5t-22 -58.5z" />
    <glyph glyph-name="macron" unicode="&#xaf;" horiz-adv-x="503" 
d="M24 699h455v-76h-455v76z" />
    <glyph glyph-name="macron" unicode="&#x2c9;" horiz-adv-x="503" 
d="M24 699h455v-76h-455v76z" />
    <glyph glyph-name="ellipsis" unicode="&#x2026;" horiz-adv-x="840" 
d="M220 0h-160v161h160v-161zM500 0h-160v161h160v-161zM780 0h-160v161h160v-161z" />
    <glyph glyph-name="asciitilde" unicode="~" horiz-adv-x="664" 
d="M71 418q15 57 48.5 85.5t77.5 28.5q39 0 71.5 -7.5t59.5 -16.5t49 -16.5t38 -7.5q32 0 51.5 15t25.5 38l11 42l131 -35l-41 -156q-15 -57 -48.5 -85.5t-77.5 -28.5q-39 0 -71.5 7.5t-59.5 17t-48.5 17t-38.5 7.5q-32 0 -51.5 -15.5t-25.5 -38.5l-11 -42l-131 35z" />
    <glyph glyph-name="tilde" unicode="&#x2dc;" horiz-adv-x="436" 
d="M55 700q10 35 31 53t48 18q24 0 44.5 -4.5t37 -10.5t30 -10.5t23.5 -4.5q20 0 32 9.5t16 23.5l7 26l82 -22l-26 -97q-9 -35 -30 -53t-48 -18q-24 0 -44.5 5t-37 10.5t-30 10.5t-24.5 5q-20 0 -32 -10t-16 -24l-7 -26l-81 22z" />
    <glyph glyph-name="atilde" unicode="&#xe3;" horiz-adv-x="503" 
d="M370 0v202h-122v-202h-224v456q0 29 9.5 48.5t25 31.5t35 17.5t38.5 5.5h239q19 0 38.5 -5.5t35 -17.5t25 -31.5t9.5 -48.5v-456h-109zM370 339q0 59 -18 85t-43 26q-26 0 -43.5 -26t-17.5 -85v-13h122v13zM85 700q10 35 31 53t48 18q24 0 44.5 -4.5t37 -10.5t30 -10.5
t23.5 -4.5q20 0 32 9.5t16 23.5l7 26l82 -22l-26 -97q-9 -35 -30 -53t-48 -18q-24 0 -44.5 5t-37 10.5t-30 10.5t-24.5 5q-20 0 -32 -10t-16 -24l-7 -26l-81 22z" />
    <glyph glyph-name="ntilde" unicode="&#xf1;" horiz-adv-x="503" 
d="M85 700q10 35 31 53t48 18q24 0 44.5 -4.5t37 -10.5t30 -10.5t23.5 -4.5q20 0 32 9.5t16 23.5l7 26l82 -22l-26 -97q-9 -35 -30 -53t-48 -18q-24 0 -44.5 5t-37 10.5t-30 10.5t-24.5 5q-20 0 -32 -10t-16 -24l-7 -26l-81 22zM248 0h-224v559h224v-105q19 0 38 -6.5
t35.5 -18.5t29.5 -28t19 -35v193h109v-559h-109v73q0 56 -14.5 87t-34 46t-40 18t-33.5 3v-227z" />
    <glyph glyph-name="otilde" unicode="&#xf5;" horiz-adv-x="503" 
d="M85 700q10 35 31 53t48 18q24 0 44.5 -4.5t37 -10.5t30 -10.5t23.5 -4.5q20 0 32 9.5t16 23.5l7 26l82 -22l-26 -97q-9 -35 -30 -53t-48 -18q-24 0 -44.5 5t-37 10.5t-30 10.5t-24.5 5q-20 0 -32 -10t-16 -24l-7 -26l-81 22zM24 456q0 29 9.5 48.5t25 31.5t35 17.5
t38.5 5.5h239q19 0 38.5 -5.5t35 -17.5t25 -31.5t9.5 -48.5v-350q0 -48 -30 -77t-88 -29h-219q-57 0 -87.5 29t-30.5 77v350zM248 339q0 -58 17.5 -84t43.5 -26q25 0 43 26t18 84q0 59 -18 85t-43 26q-26 0 -43.5 -26t-17.5 -85z" />
    <glyph glyph-name="cedilla" unicode="&#xb8;" horiz-adv-x="218" 
d="M124 -116q0 15 -9 19t-24 4h-28q-15 0 -24 9t-9 24v97h70v-77h55q15 0 24 -9t9 -24v-93q0 -15 -9 -24t-24 -9h-124v55h60q15 0 24 4t9 19v5z" />
    <glyph glyph-name="ccedilla" unicode="&#xe7;" horiz-adv-x="503" 
d="M248 339q0 -58 17.5 -84t43.5 -26q22 0 38.5 20t20.5 65h111v-208q0 -48 -30 -77t-88 -29h-219q-57 0 -87.5 29t-30.5 77v350q0 29 9.5 48.5t25 31.5t35 17.5t38.5 5.5h239q19 0 38.5 -5.5t35 -17.5t25 -31.5t9.5 -48.5v-92h-111q-4 45 -20.5 65.5t-38.5 20.5
q-26 0 -43.5 -26t-17.5 -85zM284 -116q0 15 -9 19t-24 4h-28q-15 0 -24 9t-9 24v97h70v-77h55q15 0 24 -9t9 -24v-93q0 -15 -9 -24t-24 -9h-124v55h60q15 0 24 4t9 19v5z" />
    <glyph glyph-name="Ccedilla" unicode="&#xc7;" horiz-adv-x="503" 
d="M344 -116q0 15 -9 19t-24 4h-28q-15 0 -24 9t-9 24v97h70v-77h55q15 0 24 -9t9 -24v-93q0 -15 -9 -24t-24 -9h-124v55h60q15 0 24 4t9 19v5zM310 424q0 -73 22 -105.5t54 -32.5q28 0 48.5 25t25.5 82h139v-260q0 -60 -38 -96.5t-110 -36.5h-273q-72 0 -110 36.5t-38 96.5
v437q0 36 12 60.5t31.5 40t43.5 22t48 6.5h299q24 0 48 -6.5t43.5 -22t31.5 -40t12 -60.5v-115h-139q-5 57 -25.5 82.5t-48.5 25.5q-32 0 -54 -33t-22 -106z" />
    <glyph glyph-name="Ntilde" unicode="&#xd1;" 
d="M310 0h-280v699h280v-131q23 0 47 -8.5t44.5 -23t36.5 -35t24 -44.5v242h137v-699h-137v91q0 70 -18 109t-42.5 57.5t-50 22.5t-41.5 4v-284zM204.853 758.073q9.97266 14.7041 30.917 22.2656q20.9434 7.5625 47.8711 7.5625q23.9355 0 44.3799 -1.89062
q20.4453 -1.89062 36.9004 -4.41113q16.4561 -2.52051 29.9199 -4.41113t23.4365 -1.89062q19.9463 0 31.9141 3.99121q11.9678 3.99023 15.957 9.87207l6.98145 10.9229l81.7803 -9.24219l-25.9307 -40.75q-8.97559 -14.7041 -29.9189 -22.2656
q-20.9443 -7.5625 -47.8711 -7.5625q-23.9355 0 -44.3809 2.10059t-36.9004 4.41113q-16.4561 2.31055 -29.9199 4.41113t-24.4336 2.10059q-19.9473 0 -31.9141 -4.20117q-11.9688 -4.20117 -15.957 -10.082l-6.98145 -10.9229l-80.7822 9.24219z" />
    <glyph glyph-name="Atilde" unicode="&#xc3;" 
d="M164.853 758.073q9.97266 14.7041 30.917 22.2656q20.9434 7.5625 47.8711 7.5625q23.9355 0 44.3799 -1.89062q20.4453 -1.89062 36.9004 -4.41113q16.4561 -2.52051 29.9199 -4.41113t23.4365 -1.89062q19.9463 0 31.9141 3.99121q11.9678 3.99023 15.957 9.87207
l6.98145 10.9229l81.7803 -9.24219l-25.9307 -40.75q-8.97559 -14.7041 -29.9189 -22.2656q-20.9443 -7.5625 -47.8711 -7.5625q-23.9355 0 -44.3809 2.10059t-36.9004 4.41113q-16.4561 2.31055 -29.9199 4.41113t-24.4336 2.10059q-19.9473 0 -31.9141 -4.20117
q-11.9688 -4.20117 -15.957 -10.082l-6.98145 -10.9229l-80.7822 9.24219zM462 0v252h-152v-252h-280v570q0 36 12 60.5t31.5 40t43.5 22t48 6.5h299q24 0 48 -6.5t43.5 -22t31.5 -40t12 -60.5v-570h-137zM462 424q0 73 -22 106t-54 33t-54 -33t-22 -106v-16h152v16z" />
    <glyph glyph-name="Otilde" unicode="&#xd5;" 
d="M164.853 758.073q9.97266 14.7041 30.917 22.2656q20.9434 7.5625 47.8711 7.5625q23.9355 0 44.3799 -1.89062q20.4453 -1.89062 36.9004 -4.41113q16.4561 -2.52051 29.9199 -4.41113t23.4365 -1.89062q19.9463 0 31.9141 3.99121q11.9678 3.99023 15.957 9.87207
l6.98145 10.9229l81.7803 -9.24219l-25.9307 -40.75q-8.97559 -14.7041 -29.9189 -22.2656q-20.9443 -7.5625 -47.8711 -7.5625q-23.9355 0 -44.3809 2.10059t-36.9004 4.41113q-16.4561 2.31055 -29.9199 4.41113t-24.4336 2.10059q-19.9473 0 -31.9141 -4.20117
q-11.9688 -4.20117 -15.957 -10.082l-6.98145 -10.9229l-80.7822 9.24219zM30 570q0 36 12 60.5t31.5 40t43.5 22t48 6.5h299q24 0 48 -6.5t43.5 -22t31.5 -40t12 -60.5v-437q0 -60 -38 -96.5t-110 -36.5h-273q-72 0 -110 36.5t-38 96.5v437zM310 424q0 -73 22 -105.5
t54 -32.5t54 32.5t22 105.5t-22 106t-54 33t-54 -33t-22 -106z" />
    <glyph glyph-name="bullet" unicode="&#x2022;" horiz-adv-x="292" 
d="M30 404q0 36 9.5 62.5t25.5 43.5t37 25t44 8t44 -8t37 -25t25.5 -43.5t9.5 -62.5t-9.5 -62.5t-25.5 -43t-37 -24.5t-44 -8t-44 8t-37 24.5t-25.5 43t-9.5 62.5z" />
    <glyph glyph-name="dagger" unicode="&#x2020;" horiz-adv-x="634" 
d="M205 609v191h224v-191h181v-119h-184l-27 -690h-164l-28 690h-183v119h181z" />
    <glyph glyph-name="daggerdbl" unicode="&#x2021;" horiz-adv-x="634" 
d="M205 609v191h224v-191h181v-119h-189l-22 -190l22 -190h189v-119h-181v-191h-224v191h-181v119h189l22 190l-22 190h-189v119h181z" />
    <glyph glyph-name="section" unicode="&#xa7;" horiz-adv-x="503" 
d="M24 520v177q0 29 9.5 48.5t25 31.5t35 17.5t38.5 5.5h239q19 0 38.5 -5.5t35 -17.5t25 -31.5t9.5 -48.5v-92h-111q-4 45 -20.5 65.5t-38.5 20.5q-26 0 -43.5 -19t-17.5 -60q0 -57 27 -82.5t96 -25.5q19 0 38.5 -5.5t35 -17.5t25 -31.5t9.5 -48.5v-202q0 -36 -16 -60
q16 -24 16 -59v-177q0 -29 -9.5 -48.5t-25 -31.5t-35 -17.5t-38.5 -5.5h-239q-19 0 -38.5 5.5t-35 17.5t-25 31.5t-9.5 48.5v92h111q4 -45 20.5 -65.5t38.5 -20.5q26 0 43.5 19t17.5 60q0 57 -27 82.5t-96 25.5q-19 0 -38.5 5.5t-35 17.5t-25 31.5t-9.5 48.5v202q0 18 4 33
t11 26q-7 11 -11 26t-4 34zM327 301q0 35 -22 57t-54 22q-28 0 -51 -19t-23 -60t23 -60.5t51 -19.5q32 0 54 22.5t22 57.5z" />
    <glyph glyph-name="Thorn" unicode="&#xde;" 
d="M310 364q0 -73 22 -106t54 -33t54 33t22 106t-22 106t-54 33t-54 -33t-22 -106zM310 89v-89h-280v699h280v-60h154q24 0 48 -6.5t43.5 -22t31.5 -40t12 -60.5v-292q0 -36 -12 -60.5t-31.5 -40t-43.5 -22t-48 -6.5h-154z" />
    <glyph glyph-name="thorn" unicode="&#xfe;" horiz-adv-x="503" 
d="M248 291q0 -58 17.5 -84.5t43.5 -26.5q25 0 43 26.5t18 84.5q0 59 -18 85t-43 26q-26 0 -43.5 -26t-17.5 -85zM248 71v-71h-224v559h224v-48h123q19 0 38.5 -5.5t35 -17.5t25 -31.5t9.5 -48.5v-234q0 -28 -9.5 -48t-25 -32t-35 -17.5t-38.5 -5.5h-123z" />
    <glyph glyph-name="yacute" unicode="&#xfd;" horiz-adv-x="503" 
d="M273 598h-60l30 101h160zM142 0v302l-117 257h152l75 -179l75 179h152l-113 -249v-310h-224z" />
    <glyph glyph-name="Euro" unicode="&#x20ac;" 
d="M30 318h100v54h-80v86h80v112q0 36 12 60.5t31.5 40t43.5 22t48 6.5h186q72 0 110 -36.5t38 -96.5v-77h-120q0 25 -5 41.5t-17 26t-32.5 13t-51.5 3.5q-50 0 -74.5 -30t-29.5 -85h140v-86h-140v-54h120v-86h-119q6 -51 30.5 -73.5t72.5 -22.5q31 0 51.5 3t32.5 11.5
t17 22.5t5 35h120v-79q0 -36 -12 -60.5t-31.5 -40t-43.5 -22t-48 -6.5h-199q-24 0 -48 6.5t-43.5 22t-31.5 40t-12 60.5v103h-100v86z" />
    <glyph glyph-name="Yacute" unicode="&#xdd;" 
d="M359.37 707.711h-59.6846l29.8418 92h159.16zM177 0v378l-146 321h190l94 -224l94 224h190l-142 -312v-387h-280z" />
    <glyph glyph-name="Eth" unicode="&#xd0;" horiz-adv-x="730" 
d="M30 455h101v244h434q24 0 48 -6.5t43.5 -22t31.5 -40t12 -60.5v-437q0 -60 -38 -96.5t-110 -36.5h-421v319h-101v136zM411 424q0 -73 22 -105.5t54 -32.5t54 32.5t22 105.5t-22 106t-54 33t-54 -33t-22 -106z" />
    <glyph glyph-name="eth" unicode="&#xf0;" horiz-adv-x="584" 
d="M24 364h81v195h347q19 0 38.5 -5.5t35 -17.5t25 -31.5t9.5 -48.5v-350q0 -48 -30.5 -77t-87.5 -29h-337v255h-81v109zM329 339q0 -58 17.5 -84t43.5 -26q25 0 42.5 26t17.5 84q0 59 -17.5 85t-42.5 26q-26 0 -43.5 -26t-17.5 -85z" />
    <glyph glyph-name="Zcaron" unicode="&#x17d;" 
d="M157 799.889h130l60 -36.5361l60 36.5361h130l-190 -90.0029zM599 149v-149h-569v149l289 401h-289v149h569v-149l-289 -401h289z" />
    <glyph glyph-name="zcaron" unicode="&#x17e;" horiz-adv-x="503" 
d="M70 699h130l60 -41l60 41h130l-190 -101zM479 119v-119h-455v119l231 321h-231v119h455v-119l-231 -321h231z" />
    <glyph glyph-name="Scaron" unicode="&#x160;" 
d="M157 799.889h130l60 -36.5361l60 36.5361h130l-190 -90.0029zM165 295q-24 0 -48 6.5t-43.5 22t-31.5 40t-12 60.5v146q0 36 12 60.5t31.5 40t43.5 22t48 6.5h299q24 0 48 -6.5t43.5 -22t31.5 -40t12 -60.5v-115h-139q-5 57 -25.5 82.5t-48.5 25.5q-32 0 -54 -24t-22 -75
q0 -21 8 -33t26 -18t47.5 -7.5t72.5 -1.5q24 0 48 -6.5t43.5 -22t31.5 -40t12 -60.5v-146q0 -36 -12 -60.5t-31.5 -40t-43.5 -22t-48 -6.5h-299q-24 0 -48 6.5t-43.5 22t-31.5 40t-12 60.5v115h139q5 -57 25.5 -82.5t48.5 -25.5q32 0 54 24t22 75q0 21 -8 33t-26 18
t-47.5 7.5t-72.5 1.5z" />
    <glyph glyph-name="scaron" unicode="&#x161;" horiz-adv-x="503" 
d="M70 699h130l60 -41l60 41h130l-190 -101zM132 236q-19 0 -38.5 5.5t-35 17.5t-25 31.5t-9.5 48.5v117q0 29 9.5 48.5t25 31.5t35 17.5t38.5 5.5h239q19 0 38.5 -5.5t35 -17.5t25 -31.5t9.5 -48.5v-92h-111q-4 45 -20.5 65.5t-38.5 20.5q-26 0 -43.5 -19t-17.5 -60
q0 -17 6.5 -26.5t21 -14.5t38 -6t57.5 -1q19 0 38.5 -5.5t35 -17.5t25 -31.5t9.5 -48.5v-117q0 -29 -9.5 -48.5t-25 -31.5t-35 -17.5t-38.5 -5.5h-239q-19 0 -38.5 5.5t-35 17.5t-25 31.5t-9.5 48.5v92h111q4 -45 20.5 -65.5t38.5 -20.5q26 0 43.5 19t17.5 60
q0 17 -6.5 26.5t-21 14.5t-38 6t-57.5 1z" />
    <glyph glyph-name="twosuperior" unicode="&#xb2;" horiz-adv-x="402" 
d="M297 441q-55 0 -77 -6t-22 -33v-63h185v-87h-364v176q0 23 8 39t20.5 25.5t28 13.5t30.5 4q54 0 76 6t22 33q0 32 -14.5 47.5t-34.5 15.5q-17 0 -30.5 -16.5t-16.5 -52.5h-89v74q0 23 8 38.5t20.5 25.5t28 14t30.5 4h191q15 0 30.5 -4t28 -14t20 -25.5t7.5 -38.5v-94
q0 -23 -7.5 -38.5t-20 -25.5t-28 -14t-30.5 -4z" />
    <glyph glyph-name="threesuperior" unicode="&#xb3;" horiz-adv-x="402" 
d="M155 339q20 0 34.5 9.5t14.5 36.5q0 28 -14.5 38t-34.5 10v80q20 0 34.5 12.5t14.5 39.5q0 28 -14.5 40.5t-34.5 12.5q-17 0 -30.5 -19.5t-16.5 -55.5h-89v74q0 23 8 38.5t20.5 25.5t28 14t30.5 4h183q46 0 70 -23.5t24 -61.5v-44q0 -42 -15 -62.5t-46 -33.5
q31 -9 46 -32t15 -66v-42q0 -23 -7.5 -38.5t-20 -25.5t-28 -14t-30.5 -4h-191q-15 0 -30.5 4t-28 14t-20.5 25.5t-8 38.5v74h89q3 -36 16.5 -52.5t30.5 -16.5z" />
    <glyph glyph-name="onesuperior" unicode="&#xb9;" horiz-adv-x="402" 
d="M383 347v-95h-364v95h95v257l-95 -32v95l95 32h179v-352h90z" />
    <glyph glyph-name="brokenbar" unicode="&#xa6;" horiz-adv-x="250" 
d="M220 -200h-190v420h190v-420zM30 800h190v-420h-190v420z" />
    <glyph glyph-name="multiply" unicode="&#xd7;" horiz-adv-x="449" 
d="M86 496l138 -138l140 139l67 -68l-139 -139l139 -140l-67 -67l-140 139l-138 -139l-68 68l138 139l-138 138z" />
  </font>
</defs>
</svg>
